4 comentarios el “Bajar de youtube a avi o mpeg en Ubuntu

  1. Hola amigo, he intentado convertir pero me sale esto y el archivo de salida es de 0 bytes.

    ¿Puedes ayudarme?

    PD: Esto me sale:

    [flv @ 0xb8049388]Unsupported video codec (7)
    [flv @ 0xb8049388]Unsupported video codec (7)
    [flv @ 0xb8049388]Unsupported video codec (7)
    [flv @ 0xb8049388]Unsupported video codec (7)
    [flv @ 0xb8049388]Unsupported video codec (7)
    [flv @ 0xb8049388]Unsupported video codec (7)
    [flv @ 0xb8049388]Unsupported video codec (7)
    .
    .
    .

    Seems stream 0 codec frame rate differs from container frame rate: 1000.00 (1000/1) -> 29.97 (30000/1001)
    Input #0, flv, from video.flv’:
    Duration: 00:06:00.2, start: 0.000000, bitrate: N/A
    Stream #0.0: Video: 0x0007, 29.97 tb(r)
    Stream #0.1: Audio: 0x000a, 44100 Hz, stereo
    Output #0, avi, to ‘videofile2.avi’:
    Stream #0.0: Video: 0x0000, q=2-31, 200 kb/s, 29.97 tb(c)
    Stream #0.1: Audio: mp2, 44100 Hz, stereo, 64 kb/s
    Stream mapping:
    Stream #0.0 -> #0.0
    Stream #0.1 -> #0.1
    Unsupported codec for output stream #0.0

  2. Yo bajaba sin problemas y convertía con bit comet, per desde hace una semana más o menos me parece “Unsupported video codec…0 bytes”…que ocurre????

Responder

Introduce tus datos o haz clic en un icono para iniciar sesión:

Logo de WordPress.com

Estás comentando usando tu cuenta de WordPress.com. Cerrar sesión / Cambiar )

Imagen de Twitter

Estás comentando usando tu cuenta de Twitter. Cerrar sesión / Cambiar )

Foto de Facebook

Estás comentando usando tu cuenta de Facebook. Cerrar sesión / Cambiar )

Google+ photo

Estás comentando usando tu cuenta de Google+. Cerrar sesión / Cambiar )

Conectando a %s